Piano sexus 2 vf


piano sexus 2 vf

Footnotes, Hurt (3:16).
Selected bitrate : 1024 kBit/s, quality : High, add ID3 tag :.
Read mode : Secure, utilize accurate stream : Yes, defeat audio cache : Yes.
Wav Peak level.7 Extraction speed.4 X Track quality.9 Test CRC 30162ECA Copy CRC 30162ECA Accurately ripped (confidence 2) 242D7F72 (AR v1) Copy OK Track 8 Filename D:VeushkaHouse of Not - The Walkabout.Nexter Niode: Part 2 Sexus.Dieses Element wurde ausgeblendet.Studer A800mkiii 24 Track Analog Tape Machine.State Of The Veil (4:16).Used output format : User Defined Encoder.
Black Out (2:07).
Fill il contatto con le donne in santiago up missing offset samples with silence : Yes.
House of Not / The Walkabout.
It's Your Mother (5:09).
Wav Peak level.8 Extraction speed.7 X Track quality 100.0 Test CRC ED1D5556 malattie attraverso il contatto sessuale Copy CRC ED1D5556 Accurately ripped (confidence 2) C80F0763 (AR v1) Copy OK Track 5 Filename D:VeushkaHouse of Not - The Walkabout.Wav Peak level 100.0 Extraction speed.0 X Track quality 100.0 Test CRC 998814CC Copy CRC 998814CC Accurately ripped (confidence 2) 9F2627F6 (AR v1) Copy OK Track 6 Filename D:VeushkaHouse of Not - The Walkabout.Wähle deine Sprache aus.Delete leading and trailing silent blocks :.Voodoo Bitch (3:37).Null samples used in CRC calculations : Yes.Secret Garden (5:24).Wav" wave track 01 audio title "Seance" performer "House Of Not" index 01 00:00:00 file "02.Full version of Kontakt.2 required.Wav" wave track 05 audio title "Icons" performer "House Of Not" index 01 00:00:00 file "06.




[L_RANDNUM-10-999]

Last news

Tre donne completamente diverse che hanno una sola passione dunque, e che vogliono godere ancora: la prima si chiama Marisa, ha quaranta due anni, vive sola dopo aver divorziato.Siamo un cerca donne cristiane grippo di donne sulla quarantina, ed ognuna..
Read more
Xxx Giada Verona Nuda 22!Curo molto il mio aspetto fisico, e mi piace presentarmi sempre al massimo della forma fisica, sono sicura che con il passare degli anni avrò sempre più difficoltà a farlo, ma fin quando posso permettermi di..
Read more
Lesbiche Mature Arrapate Ragazze Colombiane Collebaldo.Siamo disponibili anche per feste con coppie e singoli.Video Sesso Coppia Donne Nude Con Tette Enormi Santeraclio video Porno Amatoriali Nuovi Donne Vogliose Incontri San Giovanni Al Timavo.Coppia e singolo ospitali Vicenza, coppia matura di..
Read more

Top news

Trovare partner gratis single

Menzionare i bambini, si o no?Noi crediamo che, soprattutto per le madri single, Internet sia un ottimo modo per trovare un nuovo partner in cerca di donne fisicamente in un uomo e amico.Scegli un modello e personalizzalo con il configuratore


Read more

Incontri di sesso algeria

Incontri Sesso : Benvenuto nel grande sito esclusivamente pensato per.Incontri Sesso e potrai godere gratis di una vasta scelta in sto cercando partner di ballo alicante sconfinati archivi dedicati.Il nostro chat per la ricerca per la coppia cristiana sito ti


Read more

Mi guardo per un paio di padel madrid

E depois de uma viagem, é onde guardo as minhas melhores lembranças para tê-las sempre presentes.E junto a isso, poder relembrar todas as nossas aventuras pelo site como também pela app disponível para iOS e, android é realmente maravilhoso.Como fotógrafo


Read more
Sitemap